travismk
一代宗师

[2020] [欧美] [科幻] [WEB-1080P] 最终频率 Final.Frequency.2021.1080p.AMZN.WEBRip.DDP2.0.x264-NOGRP 3.48GB

-->

帖子完整标题:最终频率 Final.Frequency.2021.1080p.AMZN.WEBRip.DDP2.0.x264-NOGRP 3.48GB



◎译  名 最终频率
◎片  名 Final Frequency
◎年  代 2020
◎产  地 美国
◎类  别 科幻 / 惊悚
◎语  言 英语
◎上映日期 2020-08-23(美国)
◎豆瓣评分 /10 from 0 users
◎豆瓣链接 https://movie.douban.com/subject/34960087/
◎主  演 查尔斯·肖内西 Charles Shaughnessy
      小卢·弗里基诺 Lou Ferrigno Jr.
      可比·毕丝·布兰顿 Kirby Bliss Blanton

◎标  签 WK

◎简  介

  A ph.D student investigates unusual seismic activity in Los Angeles, leading to a cabal of elitist scientists, who plan to weaponize Nikola Tesla's most secret research to manipulate thought patterns and [email?protected]www.molikan.com

Video
ID : 1
Format : AVC
Format/Info : Advanced Video Codec
Format profile : [email protected]
Format settings : CABAC / 4 Ref Frames
Format settings, CABAC : Yes
Format settings, Reference frames : 4 frames
Codec ID : V_MPEG4/ISO/AVC
Duration : 1 h 30 min
Bit rate : 5 166 kb/s
Width : 1 920 pixels
Height : 1 080 pixels
Display aspect ratio : 16:9
Frame rate mode : Constant
Frame rate : 23.976 (24000/1001/189150) FPS
Color space : YUV
Chroma subsampling : 4:2:0
Bit depth : 8 bits
Scan type : Progressive
Bits/(Pixel*Frame) : 0.104
Stream size : 3.27 GiB (94%)
Default : Yes
Forced : No
Color range : Limited
Color primaries : BT.709
Transfer characteristics : BT.709
Matrix coefficients : BT.709

Audio
ID : 2
Format : E-AC-3
Format/Info : Enhanced AC-3
Commercial name : Dolby Digital Plus
Codec ID : A_EAC3
Duration : 1 h 30 min
Bit rate mode : Constant
Bit rate : 224 kb/s
Channel(s) : 2 channels
Channel layout : L R
Sampling rate : 48.0 kHz
Frame rate : 31.250 FPS (1536 SPF)
Compression mode : Lossy
Stream size : 145 MiB (4%)
Language : English
Service kind : Complete Main
Default : Yes
Forced : No

Text
ID : 3
Format : UTF-8
Codec ID : S_TEXT/UTF8
Codec ID/Info : UTF-8 Plain Text
Language : English
Default : Yes
Forced : No





1 个附件 售价 大小 下载 时间

Final.Frequency.2021.1080p.AMZN.WEBRip.DDP2.0.x264-NOGRP.torrent 0 金币 18.05K 931 次 1月前

#1楼
发帖时间:2021-09-16 18:13:46   |   回复数:0
游客组