topgood
一派掌门

[更 早] [其他] [喜剧] [WEB-1080P] 绿行星 The.Green.Planet.1996.FRENCH.1080p.NF.WEBRip.DDP2.0.x264-playWEB 4.82GB

-->

帖子完整标题:绿行星 The.Green.Planet.1996.FRENCH.1080p.NF.WEBRip.DDP2.0.x264-playWEB 4.82GB



◎译  名 绿行星
◎片  名 La Belle verte
◎年  代 1996
◎产  地 法国
◎类  别 喜剧 / 科幻
◎语  言 法语
◎上映日期 1996-09-18
◎豆瓣评分 8.4/10 from 951 users
◎豆瓣链接 https://movie.douban.com/subject/2038228/
◎片  长 99 分钟
◎导  演 柯琳娜·塞罗 Coline Serreau
◎编  剧 柯琳娜·塞罗 Coline Serreau
◎主  演 柯琳娜·塞罗 Coline Serreau
      文森特·林顿 Vincent Lindon
      玛丽昂·歌迪亚 Marion Cotillard
      詹姆斯·提瑞 James Thiérrée
      卡特琳·萨米 Catherine Samie
      菲利平·勒鲁瓦-博利约 Philippine Leroy-Beaulieu
      弗朗西斯·佩兰 Francis Perrin
      洛莱拉·克拉沃塔 Lorella Cravotta
      Nino Gauzy Nino Gauzy
      帕特里克·坦西 Patrick Timsit
      Alexis Pivot Alexis Pivot
      阿利亚·提西里 Aurélia Thiérrée
      保罗·克罗谢 Paul Crauchet
      阿尔梅尔 Armelle
      德尼·波达利德斯 Denis Podalydès
      克莱尔·凯姆 Claire Keim
      友兰达·梦露 Yolande Moreau
      狄迪尔·弗拉蒙 Didier Flamand
      雅克·普瓦特勒诺 Jacques Poitrenaud

◎标  签 法国 | 喜剧 | 科幻 | 法国电影 | 灵性 | 1996 | 绿行星 | 环保

◎简  介

  在一个叫做La Belle Verte 的星球上(在澳大利亚拍摄的),生活着跟地球上的人类一样的人,只是他们全是素食,过着和谐、简单、快乐、长寿的生活,他们的世界是美丽和充实的;其中有个叫米拉的母亲,其父亲去世时说她的母亲来自地球,当时生下米拉时去世,米拉决定去地球了解她母亲的世界。她降落在法国,开始了一系列对地球上人类生活的‘探险’。

Video
ID : 1
Format : AVC
Format/Info : Advanced Video Codec
Format profile : [email protected]
Format settings : CABAC / 4 Ref Frames
Format settings, CABAC : Yes
Format settings, Reference frames : 4 frames
Codec ID : V_MPEG4/ISO/AVC
Duration : 1 h 33 min
Bit rate mode : Variable
Bit rate : 7 234 kb/s
Maximum bit rate : 20.0 Mb/s
Width : 1 920 pixels
Height : 1 080 pixels
Display aspect ratio : 16:9
Frame rate mode : Constant
Frame rate : 24.000 FPS
Color space : YUV
Chroma subsampling : 4:2:0
Bit depth : 8 bits
Scan type : Progressive
Bits/(Pixel*Frame) : 0.145
Stream size : 4.73 GiB (98%)
Writing library : x264 core 148 r2722 1b0121b
Encoding settings : cabac=1 / ref=4 / deblock=1:0:0 / analyse=0x3:0x111 / me=umh / subme=10 / psy=1 / psy_rd=1.00:0.00 / mixed_ref=1 / me_range=120 / chroma_me=1 / trellis=2 / 8x8dct=1 / cqm=0 / deadzone=21,11 / fast_pskip=1 / chroma_qp_offset=-2 / threads=6 / lookahead_threads=1 / sliced_threads=0 / nr=0 / decimate=1 / interlaced=0 / bluray_compat=0 / stitchable=1 / constrained_intra=0 / bframes=16 / b_pyramid=2 / b_adapt=2 / b_bias=0 / direct=3 / weightb=1 / open_gop=0 / weightp=2 / keyint=240 / keyint_min=121 / scenecut=0 / intra_refresh=0 / rc_lookahead=240 / rc=crf / mbtree=1 / crf=20.0 / qcomp=0.50 / qpmin=6 / qpmax=51 / qpstep=4 / vbv_maxrate=20000 / vbv_bufsize=25000 / crf_max=0.0 / nal_hrd=vbr / filler=0 / ip_ratio=1.40 / aq=1:0.80
Default : Yes
Forced : No

Audio
ID : 2
Format : E-AC-3
Format/Info : Enhanced AC-3
Commercial name : Dolby Digital Plus
Codec ID : A_EAC3
Duration : 1 h 33 min
Bit rate mode : Constant
Bit rate : 128 kb/s
Channel(s) : 2 channels
Channel layout : L R
Sampling rate : 48.0 kHz
Frame rate : 31.250 FPS (1536 SPF)
Compression mode : Lossy
Stream size : 85.7 MiB (2%)
Title : French
Language : French
Service kind : Complete Main
Default : No
Forced : No

Text #1
ID : 3
Format : UTF-8
Codec ID : S_TEXT/UTF8
Codec ID/Info : UTF-8 Plain Text
Duration : 1 h 23 min
Bit rate : 48 b/s
Count of elements : 1145
Stream size : 29.3 KiB (0%)
Title : English
Language : English
Default : No
Forced : No

Text #2
ID : 4
Format : UTF-8
Codec ID : S_TEXT/UTF8
Codec ID/Info : UTF-8 Plain Text
Duration : 1 h 28 min
Bit rate : 42 b/s
Count of elements : 1143
Stream size : 27.9 KiB (0%)
Title : Croatian
Language : Croatian
Default : No
Forced : No

Text #3
ID : 5
Format : UTF-8
Codec ID : S_TEXT/UTF8
Codec ID/Info : UTF-8 Plain Text
Duration : 1 h 28 min
Bit rate : 46 b/s
Count of elements : 1143
Stream size : 30.4 KiB (0%)
Title : Czech
Language : Czech
Default : No
Forced : No

Text #4
ID : 6
Format : UTF-8
Codec ID : S_TEXT/UTF8
Codec ID/Info : UTF-8 Plain Text
Duration : 1 h 28 min
Bit rate : 48 b/s
Count of elements : 1124
Stream size : 31.3 KiB (0%)
Title : Danish
Language : Danish
Default : No
Forced : No

Text #5
ID : 7
Format : UTF-8
Codec ID : S_TEXT/UTF8
Codec ID/Info : UTF-8 Plain Text
Duration : 1 h 28 min
Bit rate : 50 b/s
Count of elements : 1050
Stream size : 33.0 KiB (0%)
Title : Dutch
Language : Dutch
Default : No
Forced : No

Text #6
ID : 8
Format : UTF-8
Codec ID : S_TEXT/UTF8
Codec ID/Info : UTF-8 Plain Text
Duration : 1 h 28 min
Bit rate : 50 b/s
Count of elements : 1143
Stream size : 32.5 KiB (0%)
Title : Finnish
Language : Finnish
Default : No
Forced : No

Text #7
ID : 9
Format : UTF-8
Codec ID : S_TEXT/UTF8
Codec ID/Info : UTF-8 Plain Text
Duration : 1 h 32 min
Bit rate : 99 b/s
Count of elements : 1358
Stream size : 67.3 KiB (0%)
Title : French
Language : French
Default : No
Forced : No

Text #8
ID : 10
Format : UTF-8
Codec ID : S_TEXT/UTF8
Codec ID/Info : UTF-8 Plain Text
Duration : 46 min 15 s
Bit rate : 0 b/s
Count of elements : 6
Stream size : 211 Bytes (0%)
Title : Forced
Language : French
Default : No
Forced : Yes

Text #9
ID : 11
Format : UTF-8
Codec ID : S_TEXT/UTF8
Codec ID/Info : UTF-8 Plain Text
Duration : 1 h 28 min
Bit rate : 76 b/s
Count of elements : 1118
Stream size : 50.0 KiB (0%)
Title : Greek
Language : Greek
Default : No
Forced : No

Text #10
ID : 12
Format : UTF-8
Codec ID : S_TEXT/UTF8
Codec ID/Info : UTF-8 Plain Text
Duration : 1 h 28 min
Bit rate : 49 b/s
Count of elements : 1136
Stream size : 31.9 KiB (0%)
Title : Hungarian
Language : Hungarian
Default : No
Forced : No

Text #11
ID : 13
Format : UTF-8
Codec ID : S_TEXT/UTF8
Codec ID/Info : UTF-8 Plain Text
Duration : 1 h 28 min
Bit rate : 48 b/s
Count of elements : 1145
Stream size : 31.5 KiB (0%)
Title : Italian
Language : Italian
Default : No
Forced : No

Text #12
ID : 14
Format : UTF-8
Codec ID : S_TEXT/UTF8
Codec ID/Info : UTF-8 Plain Text
Duration : 1 h 28 min
Bit rate : 45 b/s
Count of elements : 1145
Stream size : 29.6 KiB (0%)
Title : Norwegian Bokmal
Language : Norwegian Bokmal
Default : No
Forced : No

Text #13
ID : 15
Format : UTF-8
Codec ID : S_TEXT/UTF8
Codec ID/Info : UTF-8 Plain Text
Duration : 1 h 28 min
Bit rate : 52 b/s
Count of elements : 1109
Stream size : 33.8 KiB (0%)
Title : Portuguese
Language : Portuguese
Default : No
Forced : No

Text #14
ID : 16
Format : UTF-8
Codec ID : S_TEXT/UTF8
Codec ID/Info : UTF-8 Plain Text
Duration : 1 h 28 min
Bit rate : 46 b/s
Count of elements : 1131
Stream size : 30.5 KiB (0%)
Title : Romanian
Language : Romanian
Default : No
Forced : No

Text #15
ID : 17
Format : UTF-8
Codec ID : S_TEXT/UTF8
Codec ID/Info : UTF-8 Plain Text
Duration : 1 h 28 min
Bit rate : 75 b/s
Count of elements : 1139
Stream size : 49.2 KiB (0%)
Title : Russian
Language : Russian
Default : No
Forced : No

Text #16
ID : 18
Format : UTF-8
Codec ID : S_TEXT/UTF8
Codec ID/Info : UTF-8 Plain Text
Duration : 1 h 28 min
Bit rate : 53 b/s
Count of elements : 1145
Stream size : 34.8 KiB (0%)
Title : European Spanish
Language : Spanish
Default : No
Forced : No

Text #17
ID : 19
Format : UTF-8
Codec ID : S_TEXT/UTF8
Codec ID/Info : UTF-8 Plain Text
Duration : 1 h 28 min
Bit rate : 56 b/s
Count of elements : 1138
Stream size : 36.5 KiB (0%)
Title : Swedish
Language : Swedish
Default : No
Forced : No





1 个附件 售价 大小 下载 时间

The.Green.Planet.1996.FRENCH.1080p.NF.WEBRip.DDP2.0.x264-playWEB.torrent 0 金币 24.72K 560 次 1月前

#1楼
发帖时间:2021-09-16 23:26:09   |   回复数:1
亚瑟王
一派掌门
谢谢楼主分享
1月前 #2楼
游客组