topgood
一派掌门

[更 早] [欧美] [其他] [BD-720P] 梁山豪侠传 Ride.Clear.Of.Diablo.1954.720p.BluRay.x264-GUACAMOLE 3.46GB

-->

帖子完整标题:梁山豪侠传 Ride.Clear.Of.Diablo.1954.720p.BluRay.x264-GUACAMOLE 3.46GB



◎译  名 梁山豪侠传
◎片  名 Ride Clear of Diablo
◎年  代 1954
◎产  地 美国
◎类  别 西部
◎语  言 英语
◎上映日期 
◎豆瓣评分 /10 from 0 users
◎豆瓣链接 https://movie.douban.com/subject/24698575/
◎片  长 81分钟
◎编  剧 乔治·朱克曼 George Zuckerman / D·D·比彻姆 D.D. Beauchamp / Ellis Marcus Ellis Marcus
◎主  演 奥迪·墨菲 Audie Murphy
      苏珊·卡伯特 Susan Cabot
      丹·德亚 Dan Duryea
      阿贝·莱恩 Abbe Lane
      罗素·约翰逊 Russell Johnson
      保罗·伯奇 Paul Birch
      杰克·伊莱姆 Jack Elam
      丹佛·派尔 Denver Pyle

◎标  签 动作 | 美国

◎简  介

  暂无相关剧情介绍

Video
ID : 1
Format : AVC
Format/Info : Advanced Video Codec
Format profile : [email protected]
Format settings : CABAC / 8 Ref Frames
Format settings, CABAC : Yes
Format settings, Reference frames : 8 frames
Codec ID : V_MPEG4/ISO/AVC
Duration : 1 h 20 min
Bit rate : 5 703 kb/s
Width : 988 pixels
Height : 720 pixels
Display aspect ratio : 1.372
Frame rate mode : Constant
Frame rate : 23.976 (24000/1001/189150) FPS
Color space : YUV
Chroma subsampling : 4:2:0
Bit depth : 8 bits
Scan type : Progressive
Bits/(Pixel*Frame) : 0.334
Stream size : 3.21 GiB (93%)
Writing library : x264 core 164 r3065 ae03d92
Encoding settings : cabac=1 / ref=8 / deblock=1:-3:-3 / analyse=0x3:0x133 / me=umh / subme=9 / psy=1 / psy_rd=1.00:0.00 / mixed_ref=1 / me_range=16 / chroma_me=1 / trellis=2 / 8x8dct=1 / cqm=0 / deadzone=21,11 / fast_pskip=0 / chroma_qp_offset=-2 / threads=22 / lookahead_threads=1 / sliced_threads=0 / nr=0 / decimate=1 / interlaced=0 / bluray_compat=0 / constrained_intra=0 / bframes=3 / b_pyramid=2 / b_adapt=2 / b_bias=0 / direct=3 / weightb=1 / open_gop=0 / weightp=2 / keyint=250 / keyint_min=23 / scenecut=40 / intra_refresh=0 / rc_lookahead=60 / rc=crf / mbtree=1 / crf=19.0 / qcomp=0.60 / qpmin=0 / qpmax=69 / qpstep=4 / ip_ratio=1.40 / aq=3:0.60
Default : Yes
Forced : No
Color range : Limited
Matrix coefficients : BT.709

Audio
ID : 2
Format : AC-3
Format/Info : Audio Coding 3
Commercial name : Dolby Digital
Codec ID : A_AC3
Duration : 1 h 20 min
Bit rate mode : Constant
Bit rate : 448 kb/s
Channel(s) : 2 channels
Channel layout : L R
Sampling rate : 48.0 kHz
Frame rate : 31.250 FPS (1536 SPF)
Compression mode : Lossy
Stream size : 258 MiB (7%)
Language : English
Service kind : Complete Main
Default : Yes
Forced : No

Menu
00:00:00.000 : en:00:00:00.000
00:08:05.944 : en:00:08:05.944
00:13:38.484 : en:00:13:38.484
00:20:00.366 : en:00:20:00.366
00:29:27.474 : en:00:29:27.474
00:39:35.957 : en:00:39:35.957
00:47:34.351 : en:00:47:34.351
00:51:29.753 : en:00:51:29.753
00:57:02.711 : en:00:57:02.711
01:03:07.951 : en:01:03:07.951
01:15:20.224 : en:01:15:20.224
01:20:06.468 : en:01:20:06.468





1 个附件 售价 大小 下载 时间

Ride.Clear.Of.Diablo.1954.720p.BluRay.x264-GUACAMOLE.torrent 0 金币 18.01K 273 次 1月前

#1楼
发帖时间:2021-09-17 09:57:10   |   回复数:0
游客组