定风波.
一派掌门

[合 集] [大陆] [历史] [全集] [网盘下载][三国演义][84集全][1994年][DVDRIP原画高清][MKV][540P][5.1声道版][小体积收藏版]

-->


◎译  名 The Romance of Three Kingdoms
◎片  名 三国演义
◎年  代 1994
◎产  地 中国大陆
◎类  别 剧情 / 历史 / 战争
◎语  言 汉语普通话
◎上映日期 1994-10-23(中国大陆)
◎IMDb评分  8.6/10 from 543 users
◎集  数 84
◎片  长 45分钟
◎导  演 王扶林 Fulin Wang / 张绍林 Shaolin Zhang / 蔡晓晴 Xiaoqing Cai / 孙光明 Guangming Sun / 张中一 Zhongyi Zhang / 沈好放 Haofang Shen
◎编  剧 罗贯中 Luo Guanzhong / 杜家福 Jia-fu Du / 朱晓平 Xiaoping Zhu / 刘树生 Shu-sheng Liu / 叶式生 Shi-sheng Ye / 周锴 Kai Zhou / 李一波 Yi-bo Li
◎主  演 唐国强 Guoqiang Tang
       孙彦军 Yanjun Sun
       鲍国安 Guoan Bao




Video

ID                             : 1

Format                         : AVC

Format/Info                    : Advanced Video Codec

Format profile                 : [email protected]

Format settings                : CABAC / 8 Ref Frames

Format settings, CABAC         : Yes

Format settings, Reference fra : 8 frames

Codec ID                       : V_MPEG4/ISO/AVC

Duration                       : 41 min 2 s

Bit rate                       : 1 105 kb/s

Width                          : 704 pixels

Height                         : 534 pixels

Display aspect ratio           : 4:3

Original display aspect ratio  : 4:3

Frame rate mode                : Constant

Frame rate                     : 25.000 FPS

Color space                    : YUV

Chroma subsampling             : 4:2:0

Bit depth                      : 8 bits

Scan type                      : Progressive

Bits/(Pixel*Frame)             : 0.118

Stream size                    : 324 MiB (72%)


Audio

ID                             : 2

Format                         : AC-3

Format/Info                    : Audio Coding 3

Commercial name                : Dolby Digital

Codec ID                       : A_AC3

Duration                       : 41 min 2 s

Bit rate mode                  : Constant

Bit rate                       : 384 kb/s

Channel(s)                     : 6 channels

Channel layout                 : L R C LFE Ls Rs

Sampling rate                  : 48.0 kHz

Frame rate                     : 31.250 FPS (1536 SPF)

Compression mode               : Lossy

Stream size                    : 113 MiB (25%)

Language                       : Chinese

Service kind                   : Complete Main

Default                        : Yes

Forced                         : No

下载地址









「阿里云盘」

提取码: 82t8

链接:https://www.aliyundrive.com/s/aTbVPSaArKH


#1楼
发帖时间:2021-09-16 21:34:44   |   回复数:20
blj2007
一派掌门
感谢分享,辛苦啦
1月前 #2楼
18303451478
江湖小虾
谢谢分享
1月前 #3楼
fyg3792
武林高手
xiexie
1月前 #4楼
纵横的痞子
武林高手
感谢楼主分享
1月前 #5楼
qianmin9383
武林高手
感谢楼主分享
1月前 #6楼
b23526
武林高手
谢谢楼主的分享!这个绝对要顶!!!
1月前 #7楼
wei531
武林高手
谢谢,绝版了
1月前 #8楼
sonypsp100
武林高手
感谢分享,看着画面还不错。
1月前 #9楼
【李小龙】
一派掌门
清晰度可以,片子太老,没得超清
1月前 #10楼
lovem44444
武林高手
谢谢分享
1月前 #11楼
chenlibing269
武林高手
感谢分享
1月前 #12楼
wenn
武林高手

感谢分享

1月前 #13楼
影视猪猪
小有名气
好片,谢谢楼主
1月前 #14楼
pqm
小有名气
经典永流传,感谢分享!
1月前 #15楼
somacruzygw
小有名气
支持老三国,
1月前 #16楼
gundemon
武林高手
好片,谢谢楼主
1月前 #17楼
kdlzkll
江湖小虾
非常感谢楼主
1月前 #18楼
liuhw2008
武林高手
感谢分享,辛苦啦
1月前 #19楼
priscillatong
小有名气
不全吗?
1月前 #20楼
游客组