流氓兔214
一代宗师

[2023] [日本] [奇幻] [全集] [BT下载][幽游白书][全5集][中字][Web-MKV/9.55GB][1080p][日2023万众期待视效]

-->

海报





译  名 幽游白书/幽游白书真人版
片  名 Yu Yu Hakusho
年  代 2023
国  家 日本/美国
类  别 动作/奇幻
语  言 日语
字  幕 中简/中繁
评  分 7.2/10 from 4,718 users
链  接 https://movie.douban.com/subject/35295566
文件大小 9.55 GB
单集片长 45 Min
集  数 5
导  演 月川翔 Sho Tsukikawa
主  演 北村匠海 Takumi Kitamura
     志尊淳 Jun Shison
     本乡奏多 Kanata Hongo
     上杉柊平 Shuhei Uesugi
     白石圣 Sei Shiraishi
     古川琴音 Kotone Furukawa
     见上爱 Ai Mikami
     清水寻也 Hiroya Shimizu
     町田启太 Keita Machida
     梶芽衣子 Meiko Kaji
     泷藤贤一 Kenichi Takito

简介

  该剧集改编自富坚义博的传奇漫画,自1990年起,该漫画连续四年在《周刊少年Jump》上连载,由集英社出版。漫画故事围绕成天打架的浦饭幽助展开,他为了保护一个孩子而在事故中丧生。死后的他还能看到地上躺着自己的尸体。就在他发愣时,一名叫牡丹的女子自称是灵界向导,并来向他传达了一个令人震惊的事实:灵界没料到浦饭幽助这样的不良少年会因为行善而死,他在天堂或地狱都没有容身之地。于是,幽助得到了重生的机会,并在通过考验后成为了一名灵界侦探。此后,幽助便陷入了一个攸关人间界、魔界和灵界的谜团之中。

Video
Format                         : AVC
Format/Info                    : Advanced Video Codec
Format profile                 : High@L4
Format settings                : CABAC / 4 Ref Frames
Format settings, CABAC         : Yes
Format settings, Reference fra : 4 frames
Codec ID                       : V_MPEG4/ISO/AVC
Duration                       : 55 min 40 s
Bit rate mode                  : Variable
Bit rate                       : 4 708 kb/s
Maximum bit rate               : 20.0 Mb/s
Width                          : 1 920 pixels
Height                         : 1 080 pixels
Display aspect ratio           : 16:9
Frame rate mode                : Constant
Frame rate                     : 24.000 FPS
Color space                    : YUV
Chroma subsampling             : 4:2:0
Bit depth                      : 8 bits
Scan type                      : Progressive
Bits/(Pixel*Frame)             : 0.095
Stream size                    : 1.83 GiB (86%)

Audio
Format                         : E-AC-3 JOC
Format/Info                    : Enhanced AC-3 with Joint Object Coding
Commercial name                : Dolby Digital Plus with Dolby Atmos
Codec ID                       : A_EAC3
Duration                       : 55 min 40 s
Bit rate mode                  : Constant
Bit rate                       : 768 kb/s
Channel(s)                     : 6 channels
Channel layout                 : L R C LFE Ls Rs
Sampling rate                  : 48.0 kHz
Frame rate                     : 31.250 FPS (1536 SPF)
Compression mode               : Lossy
Stream size                    : 306 MiB (14%)
Language                       : Japanese
Service kind                   : Complete Main


截图





1 个附件 售价 大小 下载 时间

幽游白书.真人版.全5集.torrent 0 金币 49.53K 4127 次 1月前

#1楼
发帖时间:2024-04-10 21:51:29   |   回复数:3
流氓兔214
一代宗师
标记
1月前 #2楼
流氓兔214
一代宗师
标记
1月前 #3楼
流氓兔214
一代宗师
标记
1月前 #4楼
游客组